#TITLE:新年快乐我的爱;
#SUBTITLE:;
#ARTIST:郭美美;
#TITLETRANSLIT:;
#SUBTITLETRANSLIT:;
#ARTISTTRANSLIT:;
#CREDIT:;
#BANNER:ҵİ-LOGO.jpg;
#BACKGROUND:ҵİ.jpg;
#LYRICSPATH:;
#CDTITLE:Lan.png;
#MUSIC:ҵİ.mp3;
#OFFSET:-0.020;
#SAMPLESTART:100.000;
#SAMPLELENGTH:12.000;
#SELECTABLE:YES;
#BPMS:0.000=130.000;
#STOPS:;
#BGCHANGES:;
// cache tags:
#FIRSTBEAT:4.000;
#LASTBEAT:228.000;
#SONGFILENAME:Songs/lan sky/Happy New Year My Love/ҵİ.sm;
#HASMUSIC:1;
#HASBANNER:1;
#MUSICLENGTH:112.395;
// end cache tags

//---------------dance-single - sky----------------
#NOTES:
     dance-single:
     sky:
     Hard:
     10:
     0.733,0.938,1.000,0.196,0.196,384.000,171.000,22.000,0.000,13.000:

0000
0000
0000
0000
,
0100
0000
0010
0100
1000
0000
0001
0000
0100
0000
0010
0100
0001
0000
1000
0000
,
0101
0010
1001
0101
1010
0001
0110
0001
1010
0001
1010
0101
0011
1000
0101
0010
,
1001
0020
0002
0200
,
1333
2000
0200
0020
,
3331
0200
0020
0002
,
1333
0000
0010
0001
0100
0000
1000
0000
0100
0010
0100
0000
0001
0000
0010
0000
,
0101
2000
0200
0020
,
3331
0002
0020
0200
,
1333
0200
0020
0002
,
1333
0000
0010
0001
0100
0000
0010
0000
1000
0010
0100
0001
0100
1010
0000
0000
,
0110
0110
0110
0110
,
1001
1001
1001
1001
,
0101
0101
0101
0101
,
1010
1010
1010
1010
,
0110
0011
1100
0101
,
1010
1001
0110
1001
,
0101
1100
0011
0110
,
1001
0101
1010
0011
,
0110
1010
1001
1100
,
1010
1001
0011
0101
,
1001
0110
1100
0011
,
1010
0100
0001
0000
1000
0000
1000
0000
0000
0000
0000
0000
0000
0000
0000
0000
,
0011
0100
1010
0001
0110
1000
0101
0010
,
1100
0010
1001
0100
0011
0100
1010
0001
,
0110
1000
0101
0010
1100
0001
1010
0100
,
1001
0010
0101
1000
0110
0001
1100
0010
,
0101
0010
1001
0010
1100
0001
0110
1000
,
0101
0010
1001
0100
0011
1000
0110
0001
,
1100
0010
0101
1000
0110
0001
1010
0100
,
0011
0000
0000
0000
0100
0000
0000
0000
1001
0000
0000
0000
0010
0000
0000
0000
1100
0000
0010
0000
0100
0000
0001
0000
0110
0000
0001
0000
0010
0100
0010
0001
,
1100
0010
0101
1000
,
0010
0100
0011
1000
,
0100
0010
1001
0100
,
0010
0000
1000
0010
0100
0001
0010
0001
1000
0100
0010
0001
1100
0000
1100
0000
,
0001
0010
0100
0010
0001
0010
1000
0100
,
0001
1000
0110
0001
,
1100
0010
0101
1000
,
0110
0000
1000
0010
0100
1000
0001
0100
0010
1000
0100
0010
0101
0000
0000
0000
,
2020
0000
0000
0000
,
3131
0100
1001
0010
0101
1000
0110
0001
,
1100
0010
0101
0010
1001
0010
1100
0001
,
0110
1000
0101
0010
1001
0100
0011
1000
,
0110
0001
1100
0010
0101
1000
0101
0010
,
1001
0100
1010
0001
1100
0010
0101
1000
,
0110
0001
1010
0100
0011
0100
1001
0100
,
0011
1000
0110
0001
1010
0100
1001
0010
,
1100
0000
0101
0010
1010
0100
1010
0100
1001
0100
1010
0100
1010
0100
1001
0100
,
1010
1000
0101
0010
1100
0001
1010
0100
,
1001
0010
0101
1000
0110
0001
1100
0010
,
0101
0010
1100
0001
0110
0001
1010
0100
,
1001
0010
1100
0001
0110
0010
1001
0100
,
0011
1000
0110
0001
1100
0010
0101
1000
,
0101
0010
1001
0100
1010
0001
1100
0010
,
0101
1000
0110
0001
1100
0010
1001
0100
,
0011
0000
0100
0000
1010
0000
0001
0000
0110
1000
0001
0100
1010
0100
0010
0100
,
2002
0000
0000
0000
,
3003
0000
0000
0000
;
